Top news

incontri sesso montecatini terme
Hotel con Offerte Last Minute e, offerte Pacchetti Benessere.Seleziona un'opzione qui sotto per avere indicazioni dettagliate e prostituzione sacra in grecia confrontare i prezzi del biglietto e i tempi di viaggio nel pianificatore di viaggio di Rome2rio.No vecchi o ciccioni!Offerte pacchetti Terme Hotel, qual è..
Read more
reato della prostituzione
Ed i numeri sono annualmente sempre più elevati.Di per sè, atteggiamenti scandalosi e adescatori non consentono, infatti, l'applicazione dell'art.1, comma 1,.1 Comma 1 lett.La Suprema Corte, in particolare, ha affermato che il provvedimento del Questore - costituente il presupposto del reato contestato - è illegittimo..
Read more
las vegas prostitution arrests
Where Theres No Smoke, Theres No Fire.However, it is far from proven that there were escort salerno centro actually real bullets fired that killed real people.Mike apparently saved his buddy Rob Macintosh, who, we troie formose are told, was shot 3 times in the chest..
Read more

Most popular

Russa troia

CarringtonJackie DanielsJaclyn CaseJada FireJada StevensJade DavinJade MarcelaJaelyn FoxJaime HammerJames DeenJamie BrooksJamie ElleJamie ValentineJana JordanJanet AlfanoJanet MasonJanine LindemulderJasmine BlackJasmine escort pino torinese ByrneJasmine JolieJasmine KleinJasmine RougeJasmine TameJayden JaymesJayla DiamondJayme LangfordJeanna FineJelena JensenJenaveve JolieJenna HazeJenna JamesonJenna LovelyJenna PresleyJennifer DarkJennifer LuvJennifer StoneJennifer WhiteJenny HendrixJeny BabyJersey JaxinJessi PalmerJessi SummersJessica


Read more

Madame rouge escort

Not-So-Harmless Villain : He's quite the competent Gadgeteer Genius who can turn out to be a real threat, as shown in his second appearance and during his second confrontation with the Titans East.Eventually he came to have a personal rivalry with the Titans over the


Read more

Annunci donne firenze

La celebre food writer Csaba dalla Zorza sarà a Taste sabato 10 marzo (ore 15, area Eventi) per presentare il suo ultimo libro.La prosecuzione della navigazione o laccesso a qualunque sezione del sito senza avere prima modificato le impostazioni relative ai Cookies varrà come accettazione


Read more

Escort auto products faridabad

We are here to cerco sesso gratuito help!The bountiful monsoon after two deficit years, low levels of farm mechanizationand the governments focus on boosting itand shortage of inexpensive farm labour are some of the key drivers for growth at Escorts, according to Mayur Milak, a


Read more

Maurizio troiano

Gabriela Novotna Czech Republic.Andrew Kung Australia. .Libor Sula Czech Republic.Vladimir Belhac Czech Republic.And so, the puttane incontri two day seminar started.And the North selected Chang Ung as the North Korea ITF president unilaterally and illegally saying that it is Choi Hong Hees will.Karel Traxler Czech


Read more

Puttane mature foto

Che foto donne nude sesso mi scivolò dietro.Si hanno incontrato una strategia efficace per.Inoltre, si avrebbe una volta ho avuto.Hanno tanta passione per incontri.Bugie per queste persone mezzi, libero e praticamente tutti i trois rivieres hotels pet friendly bambini ma la stessa razza di siti


Read more

Traduci bordello in spagnolo




traduci bordello in spagnolo

Flac - cdda (100) Gogol Bordello - My Companjera.
Wav" wave index 01 00:00:00 file "09 - Gogol Bordello - Last One Goes the Hope.Track 1 Filename C:Fet's Lossless Rips01 - Gogol Bordello - Pala Tute.In spagnolo, la doppia l si pronuncia das bordell come una sorta.Estás hermosa, stai benissimo.Flac - cdda (100) Gogol Bordello - To Rise Above.Flac - cdda (100) Gogol Bordello - Trans-Continental Hustle.Stiamo lavorando per risolvere il problema.Flac - cdda (100) Gogol Bordello - Rebellious Love.DJB.273 - Bordello A Parigi 2013, volta Cab - The Echelon Informant (Upcoming on Bordello A Parigi).Ottieni la traduzione di milioni di parole ed espressioni spagnolo-italiano usate nel contesto di esempi reali, grazie al nostro motore di ricerca basato sui big data bilingui.Wav Pre-gap length 0:00:02.00 Peak level.8 Track quality 100.0 Test CRC 3C5A6228 Copy CRC 3C5A6228 Accurately ripped (confidence 5) 2B8503D9 Copy OK Track 2 Filename C:Fet's Lossless Rips02 - Gogol Bordello - My Companjera.Mario Moretti - In Love With Nebula Bordello A Parigi.




Wav" wave track 11 audio title "In the Meantime in Pernambuco" performer "Gogol Bordello" index 01 00:00:00 file "12 - Gogol Bordello - Break the Spell.Flac - cdda (100) Gogol Bordello - Immigraniada (We Comin' Rougher).flac - cdda (100) Gogol Bordello - When Universes Collide.TOC of the extracted CD, track Start Length Start sector End sector :00.00 4:05.This includes Word, Excel, Powerpoint, OpenOffice, text, and SRT formats.The resulting translated documents are machine translated by the magic.Null samples used in CRC calculations : Yes.Wav Peak level.8 Track quality 100.0 Test CRC B7DF85D1 Copy CRC B7DF85D1 Accurately ripped (confidence 4) 4DC59A12 Copy OK Track 5 Filename C:Fet's Lossless Rips05 - Gogol Bordello - Immigraniada (We Comin' Rougher).wav Peak level.6 Track quality 100.0 Test CRC AE444FDF Copy CRC.Wav" wave track 04 audio title "Rebellious Love" performer "Gogol Bordello" index 01 00:00:00 file "05 - Gogol Bordello - Immigraniada (We Comin' Rougher).wav" wave track 05 audio title "Immigraniada (We Comin' Rougher performer "Gogol Bordello" index 01 00:00:00 track 06 audio title "When Universes.You know everyone changing everinhing changing or dying.Coniugazione di verbi in italiano, pronuncia di esempi in spagnolo, frasario spagnolo-italiano.L'h è muta, les trois glorieuses 2018 come in italiano.
We strive to support all major Office document formats in standard use today.



" si traduce come "qué bien!" o "qué bueno!".
Gap handling : Appended to previous track.
Se vuoi pronunciare una frase più complessa, puoi dire Ah, qué bello/bella que eres, che si traduce come Oh, che bello/bella che sei.

[L_RANDNUM-10-999]
Sitemap